Đăng Ký Thành Viên Tìm Kiếm Bài mới Ðánh Dấu Ðã Ðọc


Chủ đề khác

Article Article Starter Category Comments Bài mới gửi
MuLtI Dead Rising: Watchtower 2015 ViE 720p BluRay DTS x264-EPiC {Thuyết Minh} truoduc Blu-ray 720p 0 31-08-15 10:36 AM
Fshare Predestination ( 2014) 1080p BRRip x 264 AC3 RARBG buidaiduong HDrip - BRrip - Web-DL 0 25-11-14 12:58 AM
MuLtI Falcon Rising 2014 ViE 1080p WEB-DL DD5.1 H264-RARBG {Thuyết Minh} truoduc Blu-ray 1080p 0 11-09-14 05:10 PM
Fshare Captain America The Winter Soldier 2014 DVDRip XviD AC3-RARBG truoduc DVD Movies 0 31-07-14 11:26 AM
Fshare Tekken-Blood-Vengeance-2011-720p-BRRip-XviD-AC3-ViSiON(Sub việt) vitbup Mini HD 1 18-01-13 01:27 PM

Comment

 

Article Tools Kiểu hiển thị
Dead Rising Endgame 2016 720p BRRip XviD AC3-RARBG ~ Xác Sống Nổi Loạn: Trò Chơi Kết Thúc
Dead Rising Endgame 2016 720p BRRip XviD AC3-RARBG ~ Xác Sống Nổi Loạn: Trò Chơi Kết Thúc
Published by newguy006
Tích Cực | Số bài: 165
Tham gia ngày: Oct 2016
03-11-16, 11:36 AM
Default Dead Rising Endgame 2016 720p BRRip XviD AC3-RARBG ~ Xác Sống Nổi Loạn: Trò Chơi Kết Thúc

Dead.Rising.Endgame.2016.720p.BRRip.XviD.AC3-RARBG
Xác Sống Nổi Loạn: Trò Chơi Kết Thúc (2016)


( Jesse Metcalfe, Keegan Connor Tracy, Jessica Harmon)
Ratings IMDB: 4.7/10 from 994




Plot:
Trích:
Phim Xác sống nổi loạn: Trò Chơi Kết thúc là Tác phẩm điện ảnh kinh dị được chuyển thể từ game ăn khách Dead Rising, End Game sẽ tiếp nối phần trước là Watchtower,

Bộ phim đưa chúng ta vào khu cách ly zombie bị nhiễm khuẩn của phía Đông thành phố Mission nơi phóng viên điều tra Chase Carter phải ngăn chặn một âm mưu bí mật của ...



Trailer:

Loading the player...


Info:
Trích:
Video
ID : 0
Format : MPEG-4 Visual
Format profile : Simple@L5
Format settings, BVOP : No
Format settings, QPel : No
Format settings, GMC : No warppoints
Format settings, Matrix : Default (H.263)
Codec ID : XVID
Codec ID/Hint : XviD
Duration : 1h 36mn
Bit rate : 3 798 Kbps
Width : 1 280 pixels
Height : 536 pixels
Display aspect ratio : 2.40:1
Frame rate : 23.976 fps
Color space : YUV
Chroma subsampling : 4:2:0
Bit depth : 8 bits
Scan type : Progressive
Compression mode : Lossy
Bits/(Pixel*Frame) : 0.231
Stream size : 2.55 GiB (85%)
Writing library : Lavc56.60.100

Audio
ID : 1
Format : AC-3
Format/Info : Audio Coding 3
Mode extension : CM (complete main)
Format settings, Endianness : Big
Codec ID : 2000
Duration : 1h 36mn
Bit rate mode : Constant
Bit rate : 640 Kbps
Channel(s) : 6 channels
Channel positions : Front: L C R, Side: L R, LFE
Sampling rate : 48.0 KHz
Frame rate : 31.250 fps (1536 spf)
Compression mode : Lossy
Stream size : 440 MiB (14%)
Alignment : Aligned on interleaves
Interleave, duration : 42 ms (1.00 video frame)
Interleave, preload duration : 512 ms

Code:
https://subscene.com/subtitles/dead-rising-endgame







2.98 GB

Code:
https://www.fshare.vn/file/SXYROV1A232Q

Code:
https://4share.vn/f/4471767072747575/Dead.Rising.Endgame.2016.720p.BRRip.XviD.AC3-RARBG.avi.file

Published by

Tích Cực
Tham gia ngày: Oct 2016
Số bài: 165

High Quality Box


Featured Articles

Underworld: Blood Wars 2016 1080p BluRay DTS x264-HDMaNiAcS

New World 2013 BluRay 1080p DTS x264-CHD

Hidden Figures 2016 1080p BluRay DTS-ES x264-CHD

Shin Godzilla 2016 JAPANESE 1080p BluRay x264 DTS-FGT

20th Century Women 2016 720p BluRay DD5.1 x264-CRiSC

In Dubious Battle 2016 mHD Bluray DD5.1 x264-TRiM

Resident Evil: The Final Chapter 2016 1080p BluRay DTS x264-CHD


Comment

Bookmarks

Article Tools
Kiểu hiển thị

Quyền sử dụng diễn đàn
Bạn không thể gửi bài mới.
Bạn không thể gửi trả lời.
Bạn không thể gửi kèm files.
Bạn không thể sửa bài viết.

BB code đang Mở
Smilies đang Mở
[IMG] đang Mở
HTML đang Tắt

Chuyển đến


Giờ GMT. Hiện tại là 10:13 PM.