Đăng Ký Thành Viên Tìm Kiếm Bài mới Ðánh Dấu Ðã Ðọc


Drama / Tivi Serial Tuyển chọn phim bộ và phim truyền hình dài tập chất lượng DVD được đăng tại đây

Chủ đề khác

Article Article Starter Category Comments Bài mới gửi
BMW Series 7 2016 sẽ nhẹ hơn cả Series 5 hiện tại Vũng Tàu Tin Tổng Hợp 0 11-08-14 08:00 PM
Fshare The Following Season 1 720p HDTV X264 - DIMENSION [Sub Việt] langbamno1 TV Show HD / Phim Bộ HD 4 02-02-14 07:43 PM
Fshare PRISON BREAK Season 01 2005 720p BluRay DTS x264 -ESiR (Sub Việt) princephuc TV Show HD / Phim Bộ HD 0 16-01-14 12:00 AM
MuLtI [Minisize] Gundam 00 Season 2 - Mobile suit (Sub Việt) phuc_0072000 Anime DVD 0 20-05-13 12:45 PM
MuLtI [Minisize] Gundam 00 Season 1 - Mobile suit ( Sub Việt ) phuc_0072000 Anime DVD 0 20-05-13 12:27 PM

Comment

 

Article Tools Kiểu hiển thị
Supernatural Season 1 ( Tv series 2005 ) Xvid 480p (Sub Việt)
Supernatural Season 1 ( Tv series 2005 ) Xvid 480p (Sub Việt)
Published by phuc_0072000
Moderator | Số bài: 227
Tham gia ngày: May 2010
04-02-13, 01:06 PM
Default Supernatural Season 1 ( Tv series 2005 ) Xvid 480p (Sub Việt)


Loading the player...




Trích:
Nội dung phim Supernatural - Season 1 2005 - Siêu Năng Lực I: Sau cái chết của mẹ mình do bàn tay quỷ gây ra, hai anh em Dean và Sam đã được cha mình rèn luyện mọi kỹ năng để trở thành thợ săn quỷ. Liệu cả hai có hoàn tất được sứ mệnh ấy khi càng về sau càng nhiều bí mật càng được hé lên về bản thân của họ.
Trích:
Video #0
ID : 0
Format : MPEG-4 Visual
Format profile : Advanced Simple@L5
Format settings, BVOP : 2
Format settings, QPel : No
Format settings, GMC : No warppoints
Format settings, Matrix : Default (H.263)
Muxing mode : Packed bitstream
Codec ID : XVID
Codec ID/Hint : XviD
Duration : 46mn 20s
Bit rate : 922 Kbps
Width : 624 pixels
Height : 352 pixels
Display aspect ratio : 16:9
Frame rate : 23.976 fps
Color space : YUV
Chroma subsampling : 4:2:0
Bit depth : 8 bits
Scan type : Progressive
Compression mode : Lossy
Bits/(Pixel*Frame) : 0.175
Stream size : 306 MiB (82%)
Writing library : XviD 1.1.2 (UTC 2006-11-01)
Audio #1
ID : 1
Format : MPEG Audio
Format version : Version 1
Format profile : Layer 3
Mode : Joint stereo
Mode extension : MS Stereo
Emphasis : 50/15ms
Codec ID : 55
Codec ID/Hint : MP3
Duration : 46mn 20s
Bit rate mode : Constant
Bit rate : 192 Kbps
Channel(s) : 2 channels
Sampling rate : 44.1 KHz
Compression mode : Lossy
Delay relative to video : 26ms
Stream size : 63.6 MiB (17%)
Alignment : Split accross interleaves
Interleave, duration : 42 ms (1.00 video frame)
Title : Audio Stream
Writing library : LAME3.97 (beta)


[CENTER]





Code:
Gồm 22 tập trong một Folder
http://www.fshare.vn/folder/T09XSG59BT


Ghi chú:
+ Password nếu có :
+ Ai muốn share đi forum khác thì ghi rõ nguồn và kèm theo những ghi chú này .
+ File chia nhỏ bằng WINRAR đã add 5% Recove Record .
+ Nếu link die , pass sai , lỗi phim , thì phản hồi trong topic hoặc nhắn tin qua hộp thư mình sẽ fix sớm nhất có thể .



-=CHÚC CÁC BẠN XEM PHIM VUI VẺ=-

Published by

phuc_0072000's Avatar
Moderator
Tham gia ngày: May 2010
Tuổi: 28
Số bài: 227


  #1  
Đã đọc 11-05-13, 08:59 PM
truongqv12's Avatar
truongqv12 truongqv12 không có trong diễn đàn.
Inactive Group
 
Tham gia ngày: May 2011
Tuổi: 21
Số bài: 15
Default Ðề: Supernatural Season 1 ( Tv series 2005 ) Xvid 480p (Sub Việt)

Bác Phúc Up bộ này à hè rồi tải về xem thôi like bác
Trả Lời Với Trích Dẫn
  #2  
Đã đọc 13-08-13, 02:20 AM
phamvuquan phamvuquan không có trong diễn đàn.
Inactive Group
 
Tham gia ngày: Jan 2012
Tuổi: 30
Số bài: 2
Default Ðề: Supernatural Season 1 ( Tv series 2005 ) Xvid 480p (Sub Việt)

link die het roi con dau
Trả Lời Với Trích Dẫn
Comment

Bookmarks

Article Tools
Kiểu hiển thị

Quyền sử dụng diễn đàn
Bạn không thể gửi bài mới.
Bạn không thể gửi trả lời.
Bạn không thể gửi kèm files.
Bạn không thể sửa bài viết.

BB code đang Mở
Smilies đang Mở
[IMG] đang Mở
HTML đang Tắt

Chuyển đến


Giờ GMT. Hiện tại là 12:25 AM.