Đăng Ký Thành Viên Tìm Kiếm Bài mới Ðánh Dấu Ðã Ðọc


DVD Movies Những bộ phim ngắn tập với chất lượng tuyệt vời hơn những đĩa DVD hoặc VCD kém chất lượng mà bạn thuê về đều được chia sẻ tại đây.

Chủ đề khác

Article Article Starter Category Comments Bài mới gửi
MuLtI Paris By Night 119: Nhạc Vàng Muôn Thuở 2016 NTSC 2xDVD5 truoduc DVD Movies 2 04-09-16 01:39 PM
MuLtI Gala nhạc Việt 7 Tết 2016 - Tết Trong Tâm Hồn NTSC DVD5 truoduc DVD Movies 0 23-01-16 03:50 PM
Fshare Gala Nhạc Việt 5 2015 NTSC DD2 0.x264-TayTO truoduc DVD Movies 0 01-02-15 01:52 PM
MuLtI Gala Nhạc Việt 3: Hương Sắc Tết Việt 2014 PAL DVD MP2 x264-SDvB truoduc DVD Movies 0 17-01-14 03:39 PM
MuLtI Gala Nhạc Việt 3: Hương Sắc Tết Việt 2014 [DVD5] truoduc DVD Movies 3 16-01-14 07:19 PM

Comment

 

Article Tools Kiểu hiển thị
Gala Nhạc Việt 9 - Chúc Tết Mọi Nhà 2xDVD5
Published by truoduc
Banned | Số bài: 17,367
Tham gia ngày: Jun 2007
10-01-17, 06:46 PM
Default Gala Nhạc Việt 9 - Chúc Tết Mọi Nhà 2xDVD5







Loading the player...




Code:
Complete name                            : J:\VIDEO_TS\VTS_01_1.VOB
Format                                   : MPEG-PS
File size                                : 1 024 MiB
Duration                                 : 32 min
Overall bit rate mode                    : Variable
Overall bit rate                         : 4 449 kb/s
Video
ID                                       : 224 (0xE0)
Format                                   : MPEG Video
Format version                           : Version 2
Format profile                           : Main@Main
Format settings, BVOP                    : Yes
Format settings, Matrix                  : Default


Format settings, GOP                     : M=3, N=12
Duration                                 : 32 min
Bit rate mode                            : Variable
Bit rate                                 : 4 168 kb/s
Maximum bit rate                         : 7 000 kb/s
Width                                    : 720 pixels
Height                                   : 576 pixels
Display aspect ratio                     : 16:9
Frame rate                               : 25.000 FPS
Standard                                 : PAL
Color space                              : YUV
Chroma subsampling                       : 4:2:0
Bit depth                                : 8 bits
Scan type                                : Progressive
Compression mode                         : Lossy
Bits/(Pixel*Frame)                       : 0.402
Time code of first frame                 : 00:00:00:00
Time code source                         : Group of pictures header
GOP, Open/Closed                         : Open
GOP, Open/Closed of first frame          : Closed
Stream size                              : 959 MiB (94%)
Audio
ID                                       : 189 (0xBD)-128 (0x80)
Format                                   : AC-3
Format/Info                              : Audio Coding 3
Mode extension                           : CM (complete main)
Format settings, Endianness              : Big
Muxing mode                              : DVD-Video
Duration                                 : 32 min
Bit rate mode                            : Constant
Bit rate                                 : 192 kb/s
Channel(s)                               : 2 channels
Channel positions                        : Front: L R
Sampling rate                            : 48.0 kHz
Frame rate                               : 31.250 FPS (1536 spf)
Compression mode                         : Lossy
Stream size                              : 44.2 MiB (4%)








Code:
https://www.fshare.vn/folder/J8CRIZ7PNWCQ


Code:
http://4share.vn/f/685d5b5d595a5f5a/Gala Nhac Viet 9_D2.iso.file
http://4share.vn/f/3702040206050004/Gala Nhac Viet 9_D1.iso.file


Code:
https://tenlua.vn/kibum/0137e628e70a69041c31/gala-nhac-viet-9d2.iso
https://tenlua.vn/kibum/0137e628e70a69041c30/gala-nhac-viet-9d1.iso

Published by

Banned
Tham gia ngày: Jun 2007
Số bài: 17,367


  #1  
Đã đọc 11-01-17, 12:19 AM
thanhduc1975 thanhduc1975 không có trong diễn đàn.
Tích Cực
 
Tham gia ngày: Aug 2010
Tuổi: 41
Số bài: 183
Default Ðề: Gala Nhạc Việt 9 - Chúc Tết Mọi Nhà 2xDVD5

Thank you so much
Trả Lời Với Trích Dẫn
Comment

Bookmarks

Article Tools
Kiểu hiển thị

Quyền sử dụng diễn đàn
Bạn không thể gửi bài mới.
Bạn không thể gửi trả lời.
Bạn không thể gửi kèm files.
Bạn không thể sửa bài viết.

BB code đang Mở
Smilies đang Mở
[IMG] đang Mở
HTML đang Tắt

Chuyển đến


Giờ GMT. Hiện tại là 04:10 PM.